#TITLE:Winter Fantasy;
#SUBTITLE:;
#ARTIST:Sho-T;
#TITLETRANSLIT:;
#SUBTITLETRANSLIT:;
#ARTISTTRANSLIT:;
#CREDIT:;
#BANNER:Winter Fantasy-banner.png;
#BACKGROUND:WinterFantasy-bg.png;
#LYRICSPATH:;
#CDTITLE:;
#MUSIC:winter fantasy.mp3;
#MUSICLENGTH:95.895;
#OFFSET:-0.140;
#SAMPLESTART:71.505;
#SAMPLELENGTH:12.000;
#SELECTABLE:YES;
#BPMS:0.000=120.000;
#STOPS:;
#BGCHANGES:;
#FIRSTBEAT:16.000;

#LASTBEAT:188.000;

#SONGFILENAME:Songs/ERICth MIX 2nd Style/Winter/winterfant.sm;

#HASMUSIC:1;

#HASBANNER:1;


//---------------dance-single - MANIAC----------------
#NOTES:
     dance-single:
     MANIAC:
     hard:
     5:
     0.256,0.294,0.136,0.083,0.005,151.000,13.000,8.000,0.000,0.000:

0000
0000
0000
0000
,
0000
0000
0000
0000
,
0000
0000
0000
0000
,
0000
0000
0000
0000
,
1000
0000
1000
0000
1000
1000
0100
0000
,
0100
0000
0100
0000
0100
0100
0010
0000
,
0010
0000
0010
0000
0010
0010
0001
0000
,
0001
0000
0001
0000
0001
0001
1000
0000
,
1001
0000
0000
0000
,
1000
0100
0010
0001
,
0001
0100
0010
1000
,
0001
0000
0100
0000
0010
0100
0010
0000
,
1001
2000
0000
3000
,
0002
0000
0000
0000
0000
0003
1000
0001
,
1000
1000
1000
1000
,
0010
0000
0010
0000
0010
0000
0010
0100
,
0020
0000
0000
0030
,
0200
0000
0000
0000
0000
0000
0310
0010
,
0100
0001
1000
0010
,
0100
0100
0001
1000
,
1000
0000
1001
0000
,
0001
0000
1001
0000
,
0010
0000
0110
0000
,
0100
0000
0110
0110
,
1001
0000
1000
0000
,
1000
0100
0100
0001
,
0001
0100
0100
1000
,
0001
0000
1000
0000
0001
1000
0001
0000
,
0101
0200
0000
0300
,
1100
0200
0000
0300
,
1000
1000
0010
0100
,
0001
0010
0010
0001
,
0100
1000
0001
0000
,
0001
1000
0010
0100
,
0110
0000
1001
0000
,
1000
0000
0000
0001
0000
0000
1000
0000
0000
0000
0000
0000
0000
0000
0000
0000
,
0010
0010
0010
0010
,
0010
0001
0100
0000
,
0010
0010
0010
0010
,
0010
0000
1000
0000
0100
0000
0100
1000
,
0001
0001
0001
0001
,
1000
1000
1000
1000
,
0100
0100
0010
0010
,
1000
0000
1000
0001
1000
0000
0000
0000
,
1000
0100
0010
0010
,
0010
0000
0001
1000
0100
1000
0001
0000
,
2002
0000
0000
0000
,
3003
0000
0000
0000;

//---------------dance-single - ANOTHER----------------
#NOTES:
     dance-single:
     ANOTHER:
     medium:
     3:
     0.213,0.294,0.042,0.031,0.000,136.000,4.000,3.000,0.000,0.000:

0000
0000
0000
0000
,
0000
0000
0000
0000
,
0000
0000
0000
0000
,
0000
0000
0000
0000
,
0001
0000
0000
0000
,
1000
0000
0000
0000
0000
0000
0000
0001
,
0001
0000
0000
0000
0000
0000
0000
1000
,
1000
0000
0000
0000
,
0010
0010
0000
0010
,
0010
0010
0000
0010
,
0100
0100
0000
0100
,
0100
0100
0000
0100
,
1000
0100
1000
0001
,
0100
0000
0010
0000
0100
0000
0001
1000
,
0100
0001
0010
0001
,
0100
0000
0001
0000
0100
0000
1000
0001
,
1000
0100
0010
0010
,
1000
0000
0001
0000
1000
0000
0100
0100
,
0001
1000
0100
0010
,
0010
1000
0002
0000
,
1003
0000
0000
0000
,
0010
0000
0100
0000
,
0010
0000
0001
0000
,
1000
1000
0001
0001
,
0100
0000
0010
0000
,
0100
0000
1000
0000
,
0010
0000
0100
0000
,
0001
0000
0000
0000
1000
1000
1000
0000
,
0010
0000
0000
0100
,
0001
0000
0000
0000
,
0010
0000
0000
1000
,
0100
0000
0010
0010
,
0001
0000
0000
0010
,
0100
0000
0000
0000
0000
0000
0010
0001
,
0010
0000
0010
1000
0010
0000
0010
0000
,
0010
0000
0010
0000
0010
0000
0100
0100
,
0010
1000
0001
1000
,
0010
0001
0100
0001
,
0010
1000
0001
0100
,
0010
1000
0001
0101
,
1010
0100
0010
0001
,
1000
0100
0010
0001
,
0100
0010
0100
0001
,
1000
0001
1000
0001
1000
0000
0110
0000
,
0001
0000
1000
0100
,
0010
0001
1000
0001
,
2002
0000
0000
0000
,
3003
0000
0000
0000;

//---------------dance-single - BASIC----------------
#NOTES:
     dance-single:
     BASIC:
     easy:
     1:
     0.125,0.193,0.052,0.031,0.000,76.000,5.000,3.000,0.000,0.000:

0000
0000
0000
0000
,
0000
0000
0000
0000
,
0000
0000
0000
0000
,
0000
0000
0000
0000
,
0010
0000
0000
0000
,
0010
0000
0000
0000
,
0010
0000
0000
0000
,
0010
0000
0000
0001
,
0001
0000
0000
0000
,
0001
0000
0000
0000
,
0001
0000
0000
0000
,
0001
0001
0001
0100
,
1000
0000
1100
0000
,
1000
0000
1000
0000
,
0100
0000
0010
0000
,
0011
0000
0001
0000
,
1000
0000
0001
0000
,
0001
0000
0010
0000
,
0100
0000
0000
0010
,
0000
0100
0000
0000
,
1001
0000
0000
0000
,
0010
0000
0100
0100
,
0100
0000
0000
0000
,
0000
0000
0100
0001
,
0000
0000
0000
0000
,
0010
0000
0000
0010
,
0100
0000
0100
0000
,
0010
0000
0010
0000
,
1000
0001
0000
0000
,
1000
0001
0000
0000
,
0001
1000
0000
0000
,
0001
1000
0000
0000
,
0010
0100
0000
0000
,
0010
0100
0000
0000
,
0100
0000
0100
0000
,
0100
0000
0000
0000
,
0001
0000
0001
1000
,
1000
0000
0000
0010
,
0010
0000
0100
1000
,
1001
0000
1001
0000
,
0100
0000
0010
0000
,
0001
0000
0000
0000
,
0010
0000
0100
0000
,
0010
0001
1000
0000
,
0020
0030
0000
0000
,
0002
0003
0000
0000
,
2000
3000
0000
0000;
